<?xml version="1.0" standalone="no"?>
<!DOCTYPE svg PUBLIC "-//W3C//DTD SVG 1.1//EN" "http://www.w3.org/Graphics/SVG/1.1/DTD/svg11.dtd" >
<svg xmlns="http://www.w3.org/2000/svg">
<metadata>Generated by IcoMoon</metadata>
<defs>
<font id="icomoon" horiz-adv-x="1024">
<font-face units-per-em="1024" ascent="960" descent="-64" />
<missing-glyph horiz-adv-x="1024" />
<glyph unicode="&#x20;" horiz-adv-x="512" d="" />
<glyph unicode="&#xe900;" d="M469.333 586.667c-0.023 0-0.051 0-0.078 0-8.817 0-16.801-3.566-22.589-9.334l0.001 0.001c-5.814-5.795-9.412-13.811-9.412-22.667s3.598-16.872 9.411-22.666l84.001-84.001-84-84c-5.814-5.795-9.412-13.811-9.412-22.667s3.598-16.872 9.411-22.666l0.001-0.001c5.795-5.814 13.811-9.412 22.667-9.412s16.872 3.598 22.666 9.411l106.668 106.668c5.814 5.795 9.411 13.811 9.411 22.667s-3.597 16.872-9.41 22.666l-106.668 106.668c-5.787 5.767-13.771 9.333-22.588 9.333-0.028 0-0.055 0-0.083 0h0.004z" />
<glyph unicode="&#xe901;" d="M512 864c-46.114 0-92.222-5.316-137.417-15.917-130.269-30.557-232.11-132.397-262.667-262.667-21.202-90.389-21.202-184.443 0-274.833 30.557-130.268 132.398-232.11 262.667-262.667 90.389-21.202 184.443-21.202 274.833 0 130.268 30.557 232.11 132.399 262.667 262.667 21.202 90.39 21.202 184.444 0 274.833-30.557 130.269-132.399 232.11-262.667 262.667-45.195 10.601-91.302 15.917-137.417 15.917zM512 800c41.209 0 82.444-4.776 122.833-14.25 106.736-25.037 189.879-108.179 214.917-214.917 18.947-80.778 18.948-164.887 0-245.667-25.037-106.737-108.18-189.879-214.917-214.917-80.78-18.948-164.889-18.947-245.667 0-106.738 25.038-189.88 108.18-214.917 214.917-18.948 80.78-18.948 164.889 0 245.667 25.037 106.738 108.179 189.88 214.917 214.917 40.389 9.474 81.624 14.25 122.833 14.25z" />
<glyph unicode="&#xe902;" d="M512 864c-46.114 0-92.222-5.316-137.417-15.917-130.269-30.557-232.11-132.397-262.667-262.667-21.202-90.389-21.202-184.443 0-274.833 30.557-130.268 132.398-232.11 262.667-262.667 90.389-21.202 184.443-21.202 274.833 0 130.268 30.557 232.11 132.399 262.667 262.667 0.531 2.183 0.836 4.69 0.836 7.268 0 15.073-10.421 27.711-24.451 31.104l-0.219 0.045c-2.207 0.543-4.74 0.855-7.347 0.855-15.079 0-27.723-10.43-31.109-24.47l-0.044-0.218c-25.037-106.737-108.18-189.879-214.917-214.917-80.78-18.948-164.889-18.947-245.667 0-106.738 25.038-189.88 108.18-214.917 214.917-18.948 80.78-18.948 164.889 0 245.667 25.037 106.738 108.179 189.88 214.917 214.917 80.778 18.948 164.887 18.948 245.667 0 2.178-0.529 4.678-0.832 7.249-0.832 15.101 0 27.759 10.46 31.124 24.531l0.044 0.218c0.531 2.183 0.836 4.69 0.836 7.268 0 15.073-10.421 27.711-24.451 31.104l-0.219 0.045c-45.195 10.601-91.302 15.917-137.417 15.917z" />
<glyph unicode="&#xe903;" d="M489.333 534.667l-106.667-106.667c-5.814-5.795-9.412-13.811-9.412-22.667s3.598-16.872 9.411-22.666l0.001-0.001c5.795-5.814 13.811-9.412 22.667-9.412s16.872 3.598 22.666 9.411l84.001 84.001 84-84c5.795-5.814 13.811-9.412 22.667-9.412s16.872 3.598 22.666 9.411l0.001 0.001c5.814 5.795 9.412 13.811 9.412 22.667s-3.598 16.872-9.411 22.666l-106.668 106.668c-5.795 5.814-13.811 9.411-22.667 9.411s-16.872-3.597-22.666-9.41l-0.001-0.001z" />
<glyph unicode="&#xe904;" d="M512 864c-46.114 0-92.222-5.316-137.417-15.917-130.269-30.557-232.11-132.397-262.667-262.667-21.202-90.389-21.202-184.443 0-274.833 30.557-130.268 132.398-232.11 262.667-262.667 90.389-21.202 184.443-21.202 274.833 0 130.268 30.557 232.11 132.399 262.667 262.667 21.202 90.39 21.202 184.444 0 274.833-30.557 130.269-132.399 232.11-262.667 262.667-45.195 10.601-91.303 15.917-137.417 15.917zM512 800c41.209 0 82.443-4.776 122.833-14.25 106.737-25.037 189.879-108.178 214.917-214.917 18.947-80.778 18.948-164.887 0-245.667-25.037-106.737-108.18-189.879-214.917-214.917-80.78-18.948-164.888-18.947-245.667 0-106.738 25.038-189.88 108.18-214.917 214.917-18.948 80.78-18.947 164.889 0 245.667 25.037 106.738 108.179 189.88 214.917 214.917 40.389 9.474 81.624 14.25 122.833 14.25z" />
<glyph unicode="&#xe905;" d="M512 864c-46.114 0-92.222-5.316-137.417-15.917-130.269-30.557-232.11-132.397-262.667-262.667-21.202-90.389-21.202-184.443 0-274.833 30.557-130.268 132.398-232.11 262.667-262.667 2.183-0.531 4.69-0.836 7.268-0.836 15.073 0 27.711 10.421 31.104 24.451l0.045 0.219c0.543 2.207 0.855 4.74 0.855 7.347 0 15.079-10.43 27.723-24.47 31.109l-0.218 0.044c-106.738 25.038-189.88 108.18-214.917 214.917-18.948 80.78-18.948 164.889 0 245.667 25.037 106.738 108.179 189.88 214.917 214.917 80.778 18.948 164.887 18.948 245.667 0 106.737-25.037 189.879-108.178 214.917-214.917 18.947-80.778 18.948-164.887 0-245.667-0.529-2.178-0.832-4.678-0.832-7.249 0-15.101 10.46-27.759 24.531-31.124l0.218-0.044c2.183-0.531 4.69-0.836 7.268-0.836 15.073 0 27.711 10.421 31.104 24.451l0.045 0.219c21.202 90.39 21.202 184.444 0 274.833-30.557 130.269-132.399 232.11-262.667 262.667-45.195 10.601-91.303 15.917-137.417 15.917z" />
<glyph unicode="&#xe906;" d="M554.667 586.667c-0.023 0-0.051 0-0.078 0-8.817 0-16.801-3.566-22.589-9.334l-106.666-106.666c-5.814-5.795-9.411-13.811-9.411-22.667s3.597-16.872 9.41-22.666l106.668-106.668c5.795-5.814 13.811-9.412 22.667-9.412s16.872 3.598 22.666 9.411l0.001 0.001c5.814 5.795 9.412 13.811 9.412 22.667s-3.598 16.872-9.411 22.666l-84.001 84.001 84 84c5.814 5.795 9.412 13.811 9.412 22.667s-3.598 16.872-9.411 22.666l-0.001 0.001c-5.787 5.767-13.771 9.333-22.588 9.333-0.028 0-0.055 0-0.083 0h0.004z" />
<glyph unicode="&#xe907;" d="M512 864c-46.114 0-92.222-5.316-137.417-15.917-130.269-30.557-232.11-132.398-262.667-262.667-21.202-90.389-21.202-184.443 0-274.833 30.557-130.268 132.398-232.11 262.667-262.667 90.389-21.202 184.443-21.202 274.833 0 130.268 30.557 232.11 132.399 262.667 262.667 21.202 90.39 21.202 184.444 0 274.833-30.557 130.269-132.399 232.11-262.667 262.667-45.195 10.601-91.303 15.917-137.417 15.917zM512 800c41.209 0 82.443-4.776 122.833-14.25 106.736-25.037 189.879-108.179 214.917-214.917 18.947-80.778 18.948-164.887 0-245.667-25.037-106.737-108.18-189.879-214.917-214.917-80.78-18.948-164.888-18.947-245.667 0-106.738 25.038-189.88 108.18-214.917 214.917-18.948 80.78-18.948 164.888 0 245.667 25.037 106.737 108.179 189.88 214.917 214.917 40.389 9.474 81.624 14.25 122.833 14.25z" />
<glyph unicode="&#xe908;" d="M512 864c-46.115 0-92.223-5.315-137.417-15.917-130.269-30.557-232.11-132.398-262.667-262.667-0.531-2.183-0.836-4.69-0.836-7.268 0-15.073 10.421-27.711 24.451-31.104l0.219-0.045c2.207-0.543 4.74-0.855 7.347-0.855 15.079 0 27.723 10.43 31.109 24.47l0.044 0.218c25.037 106.737 108.179 189.88 214.917 214.917 80.777 18.948 164.892 18.948 245.667 0 106.737-25.037 189.963-108.18 215-214.917 18.947-80.778 18.948-164.887 0-245.667-25.037-106.736-108.263-189.879-215-214.917-80.775-18.947-164.89-18.947-245.667 0-2.178 0.529-4.678 0.832-7.249 0.832-15.101 0-27.759-10.46-31.124-24.531l-0.044-0.218c-0.531-2.183-0.836-4.69-0.836-7.268 0-15.073 10.421-27.711 24.451-31.104l0.219-0.045c90.388-21.202 184.447-21.202 274.833 0 130.268 30.557 232.109 132.398 262.667 262.667 21.202 90.39 21.202 184.444 0 274.833-30.557 130.269-132.399 232.11-262.667 262.667-45.193 10.601-91.302 15.917-137.417 15.917z" />
<glyph unicode="&#xe909;" d="M85.76 661.76h283.307v-71.253h-283.307z" />
<glyph unicode="&#xe90a;" d="M476.587 306.347h-391.253v-71.253h391.253z" />
<glyph unicode="&#xe90b;" d="M192.427 483.84h-107.093v-70.827h426.667l-71.253 70.827z" />
<glyph unicode="&#xe90c;" d="M512 573.013c1.296 8.735 8.742 15.361 17.736 15.361 0.065 0 0.129 0 0.194-0.001h-0.010c0.039 0 0.085 0 0.131 0 8.91 0 16.263-6.661 17.354-15.274l0.009-0.086v-391.68c0.584-48.802 40.282-88.139 89.167-88.139 7.886 0 15.532 1.024 22.814 2.945l-0.622-0.139c38.768 11.466 66.572 46.754 66.572 88.537 0 0.524-0.004 1.047-0.013 1.569l0.001-0.079v528.64c-0.111 0.732-0.175 1.576-0.175 2.435 0 6.181 3.286 11.594 8.206 14.589l0.075 0.043c2.704 1.798 6.027 2.869 9.6 2.869s6.896-1.071 9.665-2.91l-0.065 0.040c4.996-3.037 8.281-8.451 8.281-14.632 0-0.859-0.063-1.703-0.186-2.528l0.011 0.093v-390.827c0.033-28.419 13.484-53.689 34.356-69.822l0.204-0.152c14.526-11.823 33.257-18.984 53.661-18.984 8.239 0 16.205 1.168 23.742 3.346l-0.603-0.149c38.772 11.464 66.58 46.754 66.58 88.539 0 0.673-0.007 1.345-0.022 2.014l0.002-0.1v119.467h-71.253v-124.587c0.111-0.732 0.175-1.576 0.175-2.435 0-6.181-3.286-11.594-8.206-14.589l-0.075-0.043c-2.704-1.798-6.027-2.869-9.6-2.869s-6.896 1.071-9.665 2.91l0.065-0.040c-4.996 3.037-8.281 8.451-8.281 14.632 0 0.859 0.063 1.703 0.186 2.528l-0.011-0.093v391.253c-0.584 48.802-40.282 88.139-89.167 88.139-7.886 0-15.532-1.024-22.814-2.945l0.622 0.139c-38.777-11.46-66.59-46.753-66.59-88.542 0-0.822 0.011-1.642 0.032-2.459l-0.003 0.121v-527.787c0.111-0.732 0.175-1.576 0.175-2.435 0-6.181-3.286-11.594-8.206-14.589l-0.075-0.043c-2.704-1.798-6.027-2.869-9.6-2.869s-6.896 1.071-9.665 2.91l0.065-0.040c-4.996 3.037-8.281 8.451-8.281 14.632 0 0.859 0.063 1.703 0.186 2.528l-0.011-0.093v391.253c0.001 0.114 0.001 0.248 0.001 0.383 0 48.778-39.542 88.32-88.32 88.32-43.486 0-79.632-31.428-86.963-72.81l-0.078-0.532c-1.276-5.864-2.049-12.631-2.133-19.563l-0.001-0.064v-85.333l70.827-69.973z" />
<glyph unicode="&#xe90d;" glyph-name="intelligent-routing" d="M528.36 701.344c-36.26-4.936-73.748-19.072-103.752-39.12l-8.032-5.364 36.744-36.628 14.408 7.652c17.932 9.524 40.36 17.112 61.404 20.776 23.54 4.1 61.44 2.62 84.064-3.284 76.028-19.844 134.128-80.808 150.696-158.124 3.74-17.448 4.228-59.792 0.884-76.724-10.072-51.024-38.484-96.484-80.036-128.072-26.736-20.324-66.328-35.456-103.288-39.476-37.948-4.132-88.34 6.824-119.448 25.968l-8.296 5.104-16.708-15.404c-22.7-20.932-22.168-20.18-17.076-24.148 6.924-5.396 44.148-23.216 59.7-28.584 29.596-10.208 46.892-12.864 83.576-12.832 27.78 0.024 36.056 0.64 50.076 3.732 24.96 5.504 45.64 12.944 67.74 24.368 68.42 35.36 116.132 98.596 133.368 176.74 5.368 24.34 5.368 75.812 0 100.152-10.080 45.704-30.168 86.116-58.952 118.58-57.468 64.828-141.836 96.292-227.072 84.688zM540.228 599.82c-18.032-2.836-47-13.24-47-16.876 0-0.652 7.872-9.476 17.492-19.608l17.492-18.42 13.156 2.74c35.592 7.424 67.784-2.196 93.536-27.952 40.864-40.86 40.864-102.564 0-143.4-14.78-14.772-28.004-22.444-47.12-27.332-15.72-4.020-31.656-4.268-46.684-0.728l-11.008 2.596-19.196-19.144c-10.556-10.528-18.852-19.696-18.432-20.376s7.484-3.692 15.696-6.692c59.892-21.868 121.476-7.732 165.328 37.948 57.204 59.584 57.724 150.46 1.2 209.624-21.376 22.376-45.424 36.896-73.304 44.26-15.548 4.104-45.848 5.772-61.156 3.36zM389.972 591.632c-2.816-1.724-11.072-9.464-18.344-17.204-12.020-12.784-13.228-14.704-13.228-21.004 0-6.632 1.072-8.020 24.748-32.036 16.684-16.928 24.744-26.324 24.744-28.844 0-2.056-1.884-5.624-4.188-7.928l-4.188-4.188h-183.112l-11.604-11.608v-20.736c0-15.196 0.692-22.072 2.588-25.74 5.348-10.34 3.772-10.184 103.616-10.184 101.932 0 98.596 0.388 98.596-11.484 0-5.652-2.028-8.216-24.056-30.436-31.284-31.548-31.068-30.012-7.464-53.708 25.796-25.892 18.136-29.404 88.068 40.416l57.52 57.424 6.972-5.968c33.268-28.476 86.388-1.056 83.328 43.008-2.912 41.968-52.112 62.612-83.008 34.832l-8.116-7.296-52.78 52.968c-29.032 29.128-55.78 55.192-59.44 57.912-4 13.432NaNNaNlNaNNaNclNaNNaNz" />
<glyph unicode="&#xe90e;" glyph-name="exceptional-quality" d="M684.667 745l339.333-339.333-115.5-115.667-223.833 223.833-78.667-79-115.833 115.667zM454.5 514.667l115.5-115.833 108.667-108.333-115.833-115.5-223.5 223.5-178.167-178.167-45.667-45.333-115.5 115.5 339.333 339.333zM454.5 514.667" />
<glyph unicode="&#xe90f;" glyph-name="monitoring" d="M917.333 874.667h-810.667c-0.647 0.024-1.408 0.038-2.171 0.038-34.168 0-61.867-27.699-61.867-61.867 0-0.764 0.014-1.524 0.041-2.281l-0.003 0.11v-597.333c-0.024-0.647-0.038-1.408-0.038-2.171 0-34.168 27.699-61.867 61.867-61.867 0.764 0 1.524 0.014 2.281 0.041l-0.11-0.003h810.667c0.647-0.024 1.408-0.038 2.171-0.038 34.168 0 61.867 27.699 61.867 61.867 0 0.764-0.014 1.524-0.041 2.281l0.003-0.11v597.333c0.024 0.647 0.038 1.408 0.038 2.171 0 34.168-27.699 61.867-61.867 61.867-0.764 0-1.524-0.014-2.281-0.041l0.11 0.003zM896 234.667h-768v236.8h55.467c17.112 0.293 31.743 10.615 38.292 25.328l0.108 0.272 10.667 19.2 61.867-130.133c6.592-13.99 20.575-23.499 36.78-23.499 0.57 0 1.137 0.012 1.7 0.035l-0.081-0.003c16.538 0.381 30.823 9.667 38.283 23.235l0.117 0.232 102.4 217.6 51.2-106.667c7.393-14.371 21.603-24.318 38.241-25.59l0.159-0.010h76.8c23.564 0 42.667 19.103 42.667 42.667s-19.103 42.667-42.667 42.667v0h-49.067l-78.933 166.4c-7.071 14.361-21.602 24.069-38.4 24.069s-31.329-9.707-38.289-23.819l-0.111-0.25-102.4-217.6-61.867 130.133c-7.577 13.8-21.862 23.086-38.348 23.466l-0.052 0.001c-0.483 0.021-1.050 0.032-1.62 0.032-16.205 0-30.189-9.509-36.675-23.252l-0.105-0.247-38.4-78.933h-27.733v232.533h768zM597.333 362.667h-85.333c-23.564 0-42.667-19.103-42.667-42.667s19.103-42.667 42.667-42.667v0h85.333c23.564 0 42.667 19.103 42.667 42.667s-19.103 42.667-42.667 42.667v0zM725.333 277.333h85.333c23.564 0 42.667 19.103 42.667 42.667s-19.103 42.667-42.667 42.667v0h-85.333c-23.564 0-42.667-19.103-42.667-42.667s19.103-42.667 42.667-42.667v0zM789.333 106.667h-554.667c-23.564 0-42.667-19.103-42.667-42.667s19.103-42.667 42.667-42.667v0h554.667c23.564 0 42.667 19.103 42.667 42.667s-19.103 42.667-42.667 42.667v0z" />
<glyph unicode="&#xe910;" glyph-name="queue-management" d="M493.568 305.664h306.176c11.264 0 20.48-9.216 20.48-20.48v-40.96c0-11.264-9.216-20.48-20.48-20.48h-306.176c-11.264 0-20.48 9.216-20.48 20.48v40.96c0 11.264 9.216 20.48 20.48 20.48zM493.568 488.96h306.176c11.264 0 20.48-9.216 20.48-20.48v-40.96c0-11.264-9.216-20.48-20.48-20.48h-306.176c-11.264 0-20.48 9.216-20.48 20.48v40.96c0 11.264 9.216 20.48 20.48 20.48zM493.568 671.232h306.176c11.264 0 20.48-9.216 20.48-20.48v-40.96c0-11.264-9.216-20.48-20.48-20.48h-306.176c-11.264 0-20.48 9.216-20.48 20.48v40.96c0 11.264 9.216 20.48 20.48 20.48zM296.96 671.232c-22.528 0-40.96-18.432-40.96-40.96s18.432-40.96 40.96-40.96 40.96 18.432 40.96 40.96c0 22.528-18.432 40.96-40.96 40.96zM296.96 305.664c-22.528 0-40.96-18.432-40.96-40.96s18.432-40.96 40.96-40.96 40.96 18.432 40.96 40.96c0 22.528-18.432 40.96-40.96 40.96zM296.96 540.16c-51.2 0-92.16-40.96-92.16-92.16s40.96-92.16 92.16-92.16 92.16 40.96 92.16 92.16c0 51.2-40.96 92.16-92.16 92.16zM296.96 417.28c-17.408 0-30.72 14.336-30.72 30.72 0 17.408 14.336 30.72 30.72 30.72s30.72-14.336 30.72-30.72c0-17.408-13.312-30.72-30.72-30.72z" />
<glyph unicode="&#xe911;" glyph-name="smart-telephony" d="M472.032 264.146c-0.036 0-0.080 0-0.123 0-13.2 0-25.149 5.36-33.788 14.021l-0.001 0.001c-18.706 18.69-18.69 49.136 0.016 67.842 1.446 1.448 3.444 2.343 5.652 2.343s4.206-0.896 5.652-2.343v0c1.448-1.446 2.343-3.444 2.343-5.651s-0.895-4.205-2.343-5.651v0c-12.476-12.476-12.476-32.758-0.016-45.234 12.444-12.446 32.742-12.46 45.25 0 5.918 5.934 9.26 13.788 9.368 22.11 0.062 4.418 3.45 8.166 8.104 7.884 4.367-0.059 7.885-3.614 7.885-7.989 0-0.040 0-0.081-0.001-0.121v0.006c-0.172-12.508-5.168-24.28-14.052-33.18-9.354-9.368-21.658-14.038-33.946-14.038zM424.098 469.484c-26.45 0-47.966 21.508-47.966 47.952 0 26.458 21.516 47.98 47.966 47.98 0.021 0 0.045 0 0.069 0 12.217 0 23.367-4.571 31.832-12.097l-0.049 0.043c1.651-1.472 2.686-3.605 2.686-5.98 0-2.040-0.764-3.903-2.021-5.316l0.007 0.008c-1.475-1.648-3.608-2.681-5.983-2.681-2.039 0-3.901 0.762-5.316 2.016l0.008-0.007c-5.604 4.982-13.028 8.026-21.162 8.026-0.025 0-0.050 0-0.076 0h0.004c-17.628 0-31.978-14.35-31.978-31.992 0-17.622 14.348-31.962 31.978-31.962 0.002 0 0.004 0 0.006 0 4.412 0 7.988-3.576 7.988-7.988 0-0.002 0-0.004 0-0.006v0c0-0.002 0-0.004 0-0.006 0-4.413-3.577-7.99-7.99-7.99-0.001 0-0.003 0-0.004 0v0zM374.508 378.050c-1.152 0.004-2.246 0.245-3.239 0.676l0.053-0.020c-11.381 5.060-19.174 16.267-19.174 29.294 0 0.004 0 0.009 0 0.013v-0.001c0 17.642 14.35 31.992 31.978 31.992 4.418 0 7.994-3.576 7.994-7.994s-3.576-7.994-7.994-7.994c-8.822 0-15.99-7.182-15.99-16.004 0-0.008 0-0.017 0-0.027 0-6.493 3.884-12.080 9.455-14.563l0.101-0.040c2.85-1.263 4.803-4.068 4.803-7.328 0-1.156-0.245-2.255-0.687-3.247l0.020 0.051c-1.254-2.852-4.055-4.808-7.313-4.808-0.002 0-0.005 0-0.007 0v0zM384.126 424.018c-22.046 0-39.972 17.916-39.972 39.94 0.016 24.85 23.686 44.258 48.356 39.128 3.654-0.785 6.353-3.987 6.353-7.82 0-0.578-0.061-1.142-0.178-1.686l0.009 0.052c-0.762-3.659-3.959-6.368-7.789-6.368-0.593 0-1.17 0.065-1.725 0.188l0.053-0.010c-14.848 3.060-29.088-8.564-29.088-23.484 0-13.208 10.758-23.952 23.984-23.952 4.418 0 7.994-3.576 7.994-7.994s-3.578-7.994-7.996-7.994zM480.056 519.95c-22.046 0-39.97 17.916-39.97 39.94 0 22.054 17.924 40.002 39.97 40.002s39.972-17.948 39.972-40.002c0-0.001 0-0.003 0-0.004 0-4.413-3.577-7.99-7.99-7.99-0.001 0-0.003 0-0.004 0v0c-0.002 0-0.004 0-0.006 0-4.413 0-7.99 3.577-7.99 7.99 0 0.001 0 0.003 0 0.004v0c0 13.24-10.758 24.014-23.984 24.014-13.224 0-23.982-10.774-23.982-24.014 0-13.208 10.758-23.952 23.982-23.952 0.002 0 0.004 0 0.006 0 4.413 0 7.99-3.577 7.99-7.99 0-0.001 0-0.003 0-0.004v0c0-0.002 0-0.005 0-0.008 0-4.411-3.575-7.986-7.986-7.986-0.003 0-0.006 0-0.008 0v0zM424.208 296.078c-16.832 0-33.274 6.682-45.36 18.752-24.934 24.936-24.918 65.516 0.032 90.466 12.086 12.1 28.136 18.752 45.188 18.752h0.016c17.050 0 33.118-6.652 45.232-18.768 1.448-1.446 2.343-3.444 2.343-5.652s-0.896-4.206-2.343-5.652v0c-1.446-1.448-3.444-2.343-5.652-2.343s-4.206 0.896-5.652 2.343v0c-9.086 9.086-21.142 14.084-33.928 14.084h-0.016c-12.772 0-24.81-4.998-33.882-14.068-18.72-18.72-18.736-49.168-0.032-67.86 10.82-10.804 26.31-15.894 41.362-13.504 4.294 0.592 8.462-2.312 9.134-6.668 0.059-0.365 0.093-0.786 0.093-1.215 0-3.984-2.906-7.29-6.714-7.913l-0.046-0.006c-2.937-0.475-6.323-0.747-9.773-0.748h-0.001zM552.030 264.13c-12.304 0-24.584 4.686-33.938 14.038-8.882 8.916-13.88 20.688-14.052 33.196-0.001 0.034-0.001 0.073-0.001 0.113 0 4.377 3.518 7.932 7.881 7.991h0.006c4.48 0.156 8.026-3.466 8.104-7.884 0.11-8.322 3.45-16.176 9.36-22.124 12.524-12.46 32.82-12.46 45.25 0.016 12.458 12.476 12.458 32.758 0 45.234-3.124 3.122-3.124 8.18 0 11.302s8.182 3.124 11.304 0c18.706-18.706 18.706-49.152 0-67.842-9.338-9.354-21.642-14.040-33.914-14.040zM599.962 469.484c-4.413 0.005-7.989 3.581-7.992 7.994v0c0.002 4.413 3.579 7.991 7.992 7.994v0c17.644 0 31.978 14.342 31.978 31.962 0 17.642-14.334 31.992-31.978 31.992-0.018 0-0.039 0-0.060 0-8.138 0-15.566-3.044-21.206-8.055l0.033 0.029c-3.308-2.912-8.37-2.63-11.274 0.672-1.251 1.407-2.016 3.272-2.016 5.314 0 2.37 1.029 4.5 2.664 5.967l0.007 0.007c8.42 7.483 19.573 12.054 31.794 12.054 0.020 0 0.041 0 0.061 0h-0.003c26.452 0 47.966-21.524 47.966-47.98 0.002-26.442-21.514-47.95-47.966-47.95zM649.552 378.050c-3.058 0-6.026 1.794-7.306 4.808-0.427 0.945-0.675 2.049-0.675 3.211 0 3.255 1.951 6.055 4.748 7.293l0.051 0.020c5.671 2.525 9.554 8.112 9.554 14.605 0 0.009 0 0.018 0 0.026v-0.001c0 8.822-7.15 16.004-15.988 16.004-4.414 0.003-7.991 3.58-7.994 7.994v0c0.003 4.414 3.58 7.991 7.994 7.994v0c17.644 0 31.976-14.35 31.976-31.992 0-0.004 0-0.008 0-0.012 0-13.027-7.793-24.233-18.971-29.213l-0.203-0.081c-0.94-0.411-2.034-0.652-3.184-0.656h-0.002zM639.936 424.018c-4.414 0.003-7.991 3.58-7.994 7.994v0c0.003 4.414 3.58 7.991 7.994 7.994v0c13.24 0 23.982 10.742 23.982 23.952 0 14.928-14.208 26.59-29.072 23.484-0.505-0.114-1.084-0.18-1.679-0.18-3.829 0-7.025 2.711-7.774 6.318l-0.009 0.051c-0.107 0.491-0.168 1.054-0.168 1.632 0 3.833 2.699 7.036 6.3 7.813l0.053 0.010c24.732 5.128 48.34-14.28 48.34-39.128-0.002-22.024-17.926-39.94-39.972-39.94zM544.004 519.95c-4.414 0.003-7.991 3.58-7.994 7.994v0c0.003 4.414 3.58 7.991 7.994 7.994v0c13.24 0 23.982 10.742 23.982 23.952 0 13.24-10.742 24.014-23.982 24.014-13.208 0-23.974-10.774-23.974-24.014 0-0.001 0-0.003 0-0.004 0-4.413-3.577-7.99-7.99-7.99-0.001 0-0.003 0-0.004 0v0c-0.002 0-0.004 0-0.006 0-4.413 0-7.99 3.577-7.99 7.99 0 0.001 0 0.003 0 0.004v0c0 22.054 17.924 40.002 39.964 40.002 22.046 0 39.97-17.948 39.97-40.002 0-22.024-17.924-39.94-39.97-39.94zM599.838 296.078c-3.44 0.002-6.815 0.274-10.107 0.796l0.365-0.048c-3.862 0.628-6.775 3.94-6.775 7.931 0 0.424 0.033 0.841 0.096 1.248l-0.006-0.045c0.688 4.372 4.842 7.338 9.15 6.668 15.084-2.39 30.542 2.7 41.346 13.52 18.706 18.676 18.706 49.124-0.032 67.844-9.054 9.070-21.11 14.068-33.882 14.068-12.802 0-24.856-4.998-33.944-14.084-3.124-3.124-8.182-3.124-11.304 0s-3.124 8.182 0 11.304c12.118 12.116 28.2 18.768 45.248 18.768 17.050 0 33.102-6.652 45.188-18.752 24.952-24.952 24.982-65.532 0.032-90.466-12.088-12.070-28.512-18.752-45.376-18.752zM615.922-7.676h-207.844c-0.001 0-0.001 0-0.002 0-2.207 0-4.205 0.896-5.65 2.344v0l-31.978 31.976c-1.447 1.446-2.342 3.444-2.342 5.651 0 0 0 0.001 0 0.001v0 111.92c0 0.002 0 0.004 0 0.006 0 4.412 3.576 7.988 7.988 7.988 0.002 0 0.004 0 0.006 0h271.798c4.414-0.002 7.992-3.58 7.994-7.994v0-111.92c0-2.207-0.895-4.206-2.342-5.652l-31.976-31.976c-1.446-1.448-3.444-2.344-5.652-2.344v0zM411.388 8.314h201.224l27.292 27.292v100.616h-255.81v-100.616l27.294-27.292zM360.112 88.258c-0.001 0-0.002 0-0.003 0-4.265 0-7.749 3.343-7.974 7.552l-0.001 0.020c-0.007 0.126-0.011 0.272-0.011 0.42 0 4.268 3.338 7.755 7.546 7.995l0.021 0.001 303.76 15.988c4.498 0.094 8.182-3.17 8.4-7.574 0.25-4.418-3.152-8.164-7.556-8.414l-304.182-15.988zM360.112 40.292c0 0-0.001 0-0.001 0-4.265 0-7.75 3.343-7.976 7.552l-0.001 0.020c-0.007 0.126-0.011 0.272-0.011 0.42 0 4.268 3.338 7.755 7.546 7.995l0.021 0.001 303.76 15.988c0.137 0.008 0.297 0.013 0.458 0.013 4.262 0 7.741-3.354 7.941-7.567l0.001-0.018c0.25-4.418-3.152-8.166-7.556-8.416l-304.182-15.988zM647.898 136.222h-271.798c-0.001 0-0.003 0-0.004 0-4.413 0-7.99 3.577-7.99 7.99 0 0.001 0 0.003 0 0.004v0 49.558c-80.176 50.106-127.908 135.84-127.908 230.242 0 149.876 121.928 271.806 271.806 271.806 149.854 0 271.796-121.928 271.796-271.806 0-94.418-47.746-180.152-127.908-230.242v-49.558c-0.003-4.414-3.58-7.991-7.994-7.994v0zM384.094 152.21h255.81v46.030c0 0.003 0 0.006 0 0.010 0 2.887 1.537 5.415 3.837 6.81l0.035 0.020c77.664 46.826 124.038 128.658 124.038 218.938 0 141.054-114.762 255.816-255.808 255.816-141.056 0-255.818-114.762-255.818-255.816 0-90.248 46.374-172.096 124.038-218.938 2.335-1.415 3.872-3.943 3.872-6.83 0-0.003 0-0.007 0-0.010v0.001-46.030zM512.004-39.652c-60.208 0-78.352 34.914-79.1 36.396-0.532 1.041-0.843 2.272-0.843 3.574 0 3.112 1.778 5.809 4.374 7.131l0.045 0.021c3.952 1.936 8.712 0.39 10.696-3.514 0.624-1.202 15.146-27.622 64.83-27.622 49.736 0 64.226 26.498 64.82 27.636 2.030 3.874 6.838 5.434 10.742 3.436s5.496-6.744 3.53-10.664c-0.752-1.48-18.894-36.394-79.094-36.394zM168.248 416.024h-159.884c-0.002 0-0.004 0-0.006 0-4.412 0-7.988 3.576-7.988 7.988 0 0.002 0 0.004 0 0.006v0c0 0.002 0 0.004 0 0.006 0 4.412 3.576 7.988 7.988 7.988 0.002 0 0.004 0 0.006 0h159.884c0.002 0 0.004 0 0.006 0 4.413 0 7.99-3.577 7.99-7.99 0-0.001 0-0.003 0-0.004v0c0-0.001 0-0.003 0-0.004 0-4.413-3.577-7.99-7.99-7.99-0.002 0-0.004 0-0.006 0v0zM1015.636 416.024h-159.886c-0.004 0-0.009 0-0.014 0-4.407 0-7.98 3.573-7.98 7.98 0 0.005 0 0.010 0 0.015v-0.001c0 0.004 0 0.009 0 0.014 0 4.407 3.573 7.98 7.98 7.98 0.005 0 0.010 0 0.015 0h159.885c4.414-0.003 7.991-3.58 7.994-7.994v0c-0.002-4.414-3.58-7.992-7.994-7.994v0zM75.83 164.204c-0.001 0-0.003 0-0.004 0-2.94 0-5.508 1.591-6.892 3.958l-0.020 0.038c-0.677 1.149-1.077 2.531-1.077 4.007 0 2.943 1.59 5.514 3.957 6.902l0.038 0.020 138.496 79.944c3.826 2.186 8.728 0.906 10.914-2.936 0.676-1.149 1.076-2.531 1.076-4.006 0-2.943-1.59-5.515-3.958-6.903l-0.038-0.020-138.494-79.942c-1.148-0.668-2.527-1.062-3.998-1.062v0zM809.72 587.9c-0.004 0-0.008 0-0.013 0-2.943 0-5.514 1.591-6.901 3.96l-0.020 0.038c-0.676 1.147-1.075 2.527-1.075 4 0 2.946 1.597 5.52 3.973 6.901l0.038 0.020 138.434 79.942c3.808 2.194 8.712 0.914 10.898-2.928 0.677-1.149 1.077-2.532 1.077-4.007 0-2.937-1.583-5.504-3.943-6.894l-0.037-0.020-138.434-79.942c-1.147-0.669-2.525-1.066-3.995-1.070h-0.001zM683.904 713.716c-0.007 0-0.015 0-0.024 0-1.464 0-2.835 0.397-4.011 1.090l0.037-0.020c-2.414 1.402-4.011 3.976-4.011 6.922 0 1.473 0.399 2.853 1.096 4.037l-0.020-0.037 79.912 138.464c2.186 3.834 7.056 5.152 10.93 2.928 2.398-1.409 3.982-3.976 3.982-6.913 0-1.476-0.4-2.859-1.098-4.046l0.020 0.037-79.912-138.464c-1.398-2.406-3.963-3.998-6.899-3.998 0 0 0 0-0.001 0v0zM512.036 759.808c-0.002 0-0.004 0-0.006 0-4.413 0-7.99 3.577-7.99 7.99 0 0.001 0 0.003 0 0.004v0l-0.016 159.856c0.071 4.361 3.623 7.87 7.995 7.87s7.924-3.508 7.995-7.863v-0.007l0.016-159.856c-0.001-4.415-3.579-7.993-7.994-7.994v0zM340.158 713.748c-0.004 0-0.009 0-0.014 0-2.937 0-5.503 1.592-6.881 3.96l-0.020 0.038-79.944 138.432c-0.677 1.148-1.077 2.53-1.077 4.005 0 2.942 1.591 5.512 3.959 6.897l0.038 0.020c1.146 0.675 2.525 1.073 3.997 1.073 2.943 0 5.513-1.593 6.897-3.963l0.020-0.038 79.944-138.432c0.678-1.149 1.079-2.532 1.079-4.008 0-4.409-3.575-7.984-7.984-7.984-0.005 0-0.009 0-0.014 0h0.001zM948.184 164.234c-0.005 0-0.011 0-0.016 0-1.464 0-2.837 0.393-4.018 1.081l0.038-0.020-138.464 79.944c-2.414 1.405-4.011 3.98-4.011 6.928 0 1.474 0.399 2.855 1.095 4.040l-0.020-0.038c1.411 2.41 3.987 4.003 6.936 4.003 1.47 0 2.848-0.396 4.032-1.087l-0.038 0.020 138.464-79.944c2.398-1.412 3.981-3.981 3.981-6.92 0-1.477-0.4-2.86-1.098-4.048l0.020 0.038c-1.399-2.405-3.964-3.996-6.9-3.996-0.001 0-0.001 0-0.002 0v0zM214.326 587.962c-1.472 0-2.851 0.397-4.036 1.090l0.038-0.020-138.448 79.912c-2.406 1.406-3.996 3.976-3.996 6.918 0 1.475 0.4 2.856 1.097 4.041l-0.020-0.037c2.202 3.826 7.104 5.114 10.914 2.928l138.448-79.912c2.406-1.405 3.997-3.976 3.997-6.917 0-1.475-0.4-2.857-1.097-4.042l0.020 0.037c-1.404-2.407-3.974-3.998-6.915-3.998 0 0 0 0-0.001 0v0zM512.036 303.478c-0.002 0-0.004 0-0.006 0-4.413 0-7.99 3.577-7.99 7.99 0 0.001 0 0.003 0 0.004v0 248.416c0 0.001 0 0.003 0 0.004 0 4.413 3.577 7.99 7.99 7.99 0.002 0 0.004 0 0.006 0v0c0.001 0 0.003 0 0.004 0 4.413 0 7.99-3.577 7.99-7.99 0-0.001 0-0.003 0-0.004v0-248.416c0-0.001 0-0.003 0-0.004 0-4.413-3.577-7.99-7.99-7.99-0.001 0-0.003 0-0.004 0v0zM535.978 360.062c-20.71 0-30.69 19.58-31.096 20.424-0.535 1.044-0.848 2.277-0.848 3.583 0 4.414 3.578 7.992 7.992 7.992 3.108 0 5.801-1.774 7.123-4.364l0.021-0.045c0.094-0.172 6.106-11.602 16.808-11.602 4.414-0.003 7.991-3.58 7.994-7.994v0c-0.003-4.414-3.58-7.991-7.994-7.994v0zM488.004 360.062c-0.001 0-0.003 0-0.004 0-4.413 0-7.99 3.577-7.99 7.99 0 0.001 0 0.003 0 0.004v0c0 0.002 0 0.004 0 0.006 0 4.412 3.576 7.988 7.988 7.988 0.002 0 0.004 0 0.006 0v0c10.71 0 16.738 11.492 16.8 11.602 2.014 3.888 6.824 5.48 10.728 3.514 3.918-1.998 5.528-6.746 3.558-10.68-0.404-0.844-10.382-20.424-31.086-20.424zM551.966 455.994c-37.918 0-47.926 26.146-47.926 39.972 0.049 4.379 3.61 7.909 7.996 7.909 4.361 0 7.907-3.491 7.994-7.831v-0.008c0.046-2.466 1.326-24.054 31.938-24.054 4.414-0.003 7.991-3.58 7.994-7.994v0c-0.005-4.414-3.582-7.991-7.996-7.994v0zM472.016 455.994c-0.001 0-0.003 0-0.004 0-4.413 0-7.99 3.577-7.99 7.99 0 0.001 0 0.003 0 0.004v0c0 0.001 0 0.003 0 0.004 0 4.413 3.577 7.99 7.99 7.99 0.001 0 0.003 0 0.004 0v0c30.604 0 31.884 21.594 31.932 24.054 0.078 4.396 3.48 8.228 8.072 7.884 4.377-0.023 7.916-3.576 7.916-7.956 0 0 0 0 0 0v0c0-13.824-10.010-39.97-47.92-39.97z" />
<glyph unicode="&#xe912;" glyph-name="video-conferencing" d="M66.476 957.684c-30.896-6.688-58.056-34.272-64.588-65.608-2.668-12.792-2.668-634.72 0-647.512 5.912-28.356 27.172-52.584 55.544-63.3l9.98-3.772 342.328-1.704-32.924-44.612c-32.080-43.472-33.168-44.72-42.556-48.86-27.384-12.084-62.936-37.62-78.66-56.5-17.68-21.224-30.14-45.94-30.26-60.016-0.072-8.444 5.908-20.672 12.44-25.432 4.808-3.508 5.328-3.516 271.928-3.956 258.62-0.428 267.348-0.34 274.396 2.776 5.556 2.46 8.156 5.020 10.948 10.796 5.156 10.652 4.648 20.168-1.952 36.364-14.796 36.32-48.56 68.696-96.412 92.444l-16.252 8.064-66.128 88.932 342.28 1.704 9.98 3.772c28.372 10.716 49.632 34.944 55.544 63.3 2.668 12.792 2.668 634.72 0 647.512-5.884 28.216-26.236 51.408-55.284 62.988l-10.24 4.084-440.32 0.292c-337.18 0.224-442.54-0.188-449.792-1.756zM944.508 902.044c8.392-1.944 14.516-6.448 18.904-13.904 3.376-5.728 3.42-9.332 3.924-312.14 0.28-168.492 0.036-310.34-0.54-315.22-1.24-10.504-6.252-18.628-14.48-23.46-5.732-3.368-8.88-3.528-78.88-4.004l-72.908-0.492-0.772 3.908c-5.224 26.472-7.588 35.776-13.356 52.548-24.972 72.564-76.004 130.38-145.548 164.884-24.352 12.084-43.984 18.952-71.032 24.852-15.596 3.404-22.504 3.864-57.82 3.864-35.204 0-42.248-0.464-57.64-3.828-63.848-13.94-120.272-46.644-161.044-93.344-32.404-37.12-55.988-84.78-66.292-133.976-1.868-8.916-3.408-16.82-3.424-17.56-0.016-0.744-32.86-1.128-72.988-0.856-69.404 0.472-73.24 0.664-78.752 3.912-7.456 4.388-11.96 10.512-13.904 18.904-0.856 3.684-1.572 56.040-1.596 116.348l-0.040 109.652 27.732 0.044c37.912 0.052 44.66 1.992 53.912 15.476 3.332 4.852 3.876 7.44 3.304 15.652-0.832 11.888-4.628 17.712-15.008 23.016-6.984 3.568-9.724 3.84-38.728 3.84h-31.212v56.32l59.308 0.036c54.040 0.036 59.924 0.32 66.268 3.2 21.656 9.836 22.732 39.556 1.848 50.984-4.776 2.612-12.424 3.012-66.468 3.48l-61.072 0.524 0.484 113.82c0.472 110.292 0.592 114.004 3.9 119.616 4.236 7.196 10.608 12.052 18.128 13.828 8.156 1.928 857.496 2.004 865.792 0.076zM485.548 806.988c-61.584-13.136-104.7-69.428-101.056-131.936 1.892-32.44 14.080-59.148 37.84-82.908 25.94-25.94 53.408-37.392 89.668-37.392 23.476 0 39.608 3.98 60.588 14.96 19.236 10.060 41.836 32.66 51.524 51.516 18.756 36.508 20.752 73.244 5.952 109.612-12.192 29.964-38.38 56.316-68.448 68.892-23.276 9.728-51.736 12.444-76.068 7.256zM525.996 751.572c21.416-4.548 40.66-19.504 49.552-38.512 20.4-43.592-5.396-92.968-52.88-101.224-37.192-6.464-75.252 21.604-80.6 59.44-5.204 36.828 17.708 70.872 53.72 79.808 11.024 2.736 19.012 2.868 30.208 0.488zM557.176 423.272c46.168-9.748 84.084-29.728 116.98-61.648 9.192-8.92 21.504-22.896 27.352-31.056 17.912-24.976 34.1-62.184 40.056-92.060l1.108-5.548h-461.344l1.108 5.548c5.556 27.872 20.328 63.216 36.272 86.788 36.68 54.22 96.68 91.464 161.72 100.384 17.248 2.368 60.568 1.008 76.748-2.408zM566.884 144.564c12.82-17.556 23.188-32.004 23.040-32.104-0.148-0.096-7.952 0.952-17.336 2.332-11.532 1.692-31.188 2.508-60.588 2.508s-49.056-0.816-60.588-2.508c-9.384-1.38-17.188-2.428-17.336-2.332-0.148 0.1 10.22 14.548 23.040 32.104l23.312 31.928h63.144l23.312-31.928zM566.1 57.948c39.804-5.216 70.484-13.776 100.768-28.116 19.144-9.064 39.056-22.080 48.172-31.484l5.844-6.028h-417.768l5.884 6.152c14.076 14.72 50.452 34.82 81.144 44.832 18.544 6.052 43.032 11.44 66.388 14.612 24.208 3.288 84.58 3.304 109.568 0.032z" />
<glyph unicode="&#xe913;" glyph-name="contacts-sync" d="M423.464 804.624c-10.844-2.436-19.816-11.66-22.468-23.104-0.856-3.68-1.572-17.876-1.596-31.544l-0.040-24.856-22.612-1.984c-28.2-2.48-49.948-8.228-72.352-19.128-60.628-29.496-100.936-87.424-108.072-155.316-2.244-21.336-2.244-261.968 0-283.304 9.756-92.82 81.204-164.268 174.024-174.024 21.336-2.244 261.968-2.244 283.304 0 47.468 4.988 90.6 26.316 122.656 60.644 29.396 31.472 46.796 69.88 51.368 113.38 2.244 21.336 2.244 261.968 0 283.304-8.468 80.536-64.74 147.264-141.78 168.116-8.956 2.424-25.936 5.212-38.48 6.312l-22.448 1.972-0.636 29.136c-0.676 31.016-1.692 35.292-10.196 43-6.424 5.82-11.656 7.86-20.176 7.86-8.808 0-16.052-3.088-21.588-9.192-7.564-8.348-8.228-11.492-8.88-41.976l-0.628-29.44h-101.728l-0.628 29.44c-0.652 30.484-1.316 33.628-8.88 41.976-6.928 7.644-17.872 11.036-28.164 8.728zM400.060 652.952c2.304-20.352 18.276-33.16 36.288-29.1 13.264 2.992 22.012 13.708 23.752 29.1l1.14 10.088h101.52l1.14-10.088c2.304-20.352 18.276-33.16 36.288-29.1 13.264 2.992 22.012 13.708 23.752 29.1l1.14 10.088h14.016c18.52 0 37.092-4.812 57.224-14.828 13.712-6.824 18.724-10.58 32.5-24.352 13.772-13.776 17.528-18.788 24.352-32.5 15.432-31.020 14.828-23.524 14.828-184.32 0-134.064-0.164-141.752-3.312-154.052-3.54-13.844-10.012-30.268-11.928-30.268-0.64 0-9.504 4.96-19.696 11.024-43.484 25.868-93.656 43.924-150.236 54.068-19.824 3.552-27.372 3.976-70.828 3.976s-51.004-0.424-70.828-3.976c-56.444-10.12-104.224-27.272-149.976-53.84-10.656-6.188-19.768-11.252-20.248-11.252-1.66 0-8.34 17.368-11.636 30.268-3.148 12.3-3.312 19.988-3.312 154.052 0 160.796-0.604 153.3 14.828 184.32 6.824 13.712 10.58 18.724 24.352 32.5 13.772 13.768 18.792 17.532 32.5 24.356 20.424 10.164 37.472 14.608 56.528 14.732l14.712 0.092 1.14-10.088zM482.132 572.808c-17.504-5.040-31.36-13.536-46.16-28.32-22.46-22.428-31.716-44.612-31.716-76.008 0-31.384 9.252-53.564 31.716-76.028 22.648-22.644 44.004-31.492 76.028-31.492s53.38 8.848 76.028 31.492c22.644 22.648 31.492 44.004 31.492 76.028s-8.848 53.38-31.492 76.028c-15.124 15.124-30.264 24.18-48.116 28.788-14.236 3.672-44.208 3.42-57.78-0.488zM535.892 518.256c10.224-5.3 20.768-15.76 25.784-25.572 3.46-6.772 4.084-10.464 4.084-24.204 0-18.648-2.98-26.432-14.764-38.58-11.468-11.82-20.096-15.18-38.996-15.18s-27.528 3.36-38.996 15.18c-11.784 12.148-14.764 19.932-14.764 38.58 0 18.412 2.952 26.324 14.224 38.112 11.872 12.416 22.424 16.516 41.244 16.024 11.356-0.296 16.172-1.24 22.184-4.36zM571.708 228.776c38.132-6.564 73.144-17.796 106.692-34.228 24.656-12.080 33.28-17.104 33.28-19.392 0-2.848-31.476-17.328-45.072-20.736-12.916-3.232-19.62-3.38-154.608-3.38s-141.692 0.148-154.608 3.38c-13.484 3.38-45.072 17.88-45.072 20.692 0 4.224 45.084 26.632 73.388 36.476 22.892 7.964 52.92 15.316 72.532 17.76 8.448 1.052 17.28 2.24 19.628 2.64 10.392 1.764 78.46-0.568 93.84-3.212z" />
<glyph unicode="&#xe914;" glyph-name="chats" d="M334.508 905.268c-82.86-2.624-126.804-12.12-164.824-35.616-46.076-28.476-80.928-70.572-97.624-117.9-16.348-46.352-20.060-103.084-18.644-284.928 0.964-124.092 1.884-139.244 10.484-173.088 4.716-18.56 18.564-49.036 30.048-66.136 24.324-36.22 56.476-64.688 94.64-83.792 35.064-17.552 60.528-22.672 125.44-25.216 24.872-0.976 50.984-2.456 58.024-3.288 11.956-1.412 13.196-1.956 18.776-8.228 3.284-3.692 15.956-23.536 28.16-44.096 31.008-52.248 43.412-64.14 74.54-71.48 19.076-4.496 37.64-2.2 57.424 7.1 17.14 8.056 29.048 22.24 54.060 64.38 12.204 20.56 24.876 40.404 28.16 44.096 5.58 6.272 6.82 6.816 18.776 8.228 7.040 0.832 33.152 2.312 58.024 3.288 64.912 2.544 90.376 7.664 125.44 25.216 38.164 19.104 70.316 47.572 94.64 83.792 11.484 17.104 25.332 47.576 30.048 66.136 9.492 37.348 10.044 48.544 10.088 203.756 0.040 152.8-0.8 174.024-8.556 216.092-6.22 33.736-16.328 60.072-32.020 83.428-27.132 40.392-67.48 73.628-107.776 88.784-32.376 12.18-68.76 17.268-140.024 19.592-56.792 1.848-287.644 1.768-347.304-0.12zM709.816 840.468c51.436-2.976 74.724-7.548 99.996-19.624 30.392-14.52 60.512-44.64 75.032-75.032 19.204-40.188 22.036-76.468 20.932-267.944-0.908-157.8-1.352-162.176-20.128-198.828-22.316-43.56-63.984-77.944-108.348-89.408-18.344-4.74-33.132-6.136-83.088-7.844-55.504-1.9-67.352-3.708-85.004-12.984-18.62-9.784-29.376-22.768-56.776-68.54-12.932-21.604-25.096-40.712-27.032-42.464-5.008-4.536-21.86-4.472-26.908 0.096-1.996 1.808-14.032 20.708-26.744 42-27.204 45.576-38.452 59.184-56.92 68.888-17.688 9.296-29.512 11.104-85.040 13.004-63.596 2.172-79.204 4.448-104.564 15.24-45.5 19.364-86.4 65.38-98.796 111.16-6.856 25.312-7.38 36.124-8.192 168.824-1.172 192.024 1.664 228.504 20.92 268.8 14.484 30.316 44.536 60.396 75.032 75.1 23.94 11.544 50.46 16.888 96.896 19.532 34.664 1.972 364.768 1.992 398.732 0.024zM328.532 604.3c-10.824-4.832-17.92-16.036-17.92-28.3 0-8.552 2.52-15.024 8.216-21.116 9.416-10.072 0.032-9.604 193.008-9.604 121.216 0 178.956 0.576 182.24 1.816 25.388 9.592 25.388 48.216 0 57.808-3.288 1.244-60.976 1.796-182.612 1.748-144.76-0.052-178.764-0.492-182.932-2.352zM328.336 454.996c-3.864-1.764-9.24-6.116-11.948-9.664-4.364-5.724-4.92-7.836-4.92-18.664 0-10.84 0.556-12.94 4.932-18.684 2.716-3.56 8.248-7.932 12.292-9.724 7.048-3.116 12.556-3.232 132.584-2.784l125.232 0.472 6.148 4.688c10.632 8.112 14.060 14.456 14.060 26.032s-3.428 17.916-14.060 26.028l-6.148 4.692-125.576 0.412c-119.824 0.392-125.892 0.264-132.596-2.804z" />
<glyph unicode="&#xe915;" glyph-name="cloud-numbers" d="M463.952 884.764c-89.62-7.060-176.196-54.28-225.544-123.020-13.804-19.228-31.68-54.444-38.724-76.292-11.092-34.392-15.612-77.308-12.072-114.572 1.792-18.868 7.084-50.236 9.564-56.704 0.632-1.648-2.728-3.48-11.528-6.284-46.572-14.836-82.852-44.324-106.444-86.512-29.056-51.956-31.156-124.2-5.2-178.992 10.288-21.716 18.184-33.256 34.22-50.020 26.080-27.248 54.68-43.124 94.868-52.656 7.704-1.828 23.992-2.904 53.284-3.524l42.192-0.888 11.456-17.304c14.82-22.38 43.468-51.228 65.26-65.704 84.568-56.196 188.864-56.196 273.432 0 21.88 14.536 50.436 43.316 65.388 65.896 6.368 9.62 12.216 17.492 12.988 17.492 5.216 0 30.604 4.096 43.152 6.96 44.672 10.196 86.188 33.040 121.744 66.988 31.352 29.932 50.756 60.308 63.608 99.568 9.516 29.064 12.668 49.212 12.636 80.776-0.028 28.508-2.588 47.232-10.12 74.052-25.12 89.436-93.824 158.508-179.216 180.176-6.996 1.776-7.036 1.828-10.016 14.152-8.968 37.056-26.36 76.596-47.34 107.608-55.468 82-153.108 127.032-257.588 118.804zM535.484 818.432c21.784-4.44 37.688-10.084 58.436-20.74 20.1-10.324 35.172-21.58 51.792-38.68 33.324-34.272 52.824-73.020 65.788-130.708 2.884-12.828 6.516-25.268 8.072-27.644 4.404-6.72 15.648-12.188 29.656-14.42 80.036-12.748 143.080-82.3 155.192-171.216 4.908-36.028-2.116-79.3-17.988-110.788-12.040-23.888-37.144-52.076-62.232-69.88-18.772-13.324-46.96-26.088-68.78-31.148-4.46-1.036-4.816-0.784-3.976 2.788 5.608 23.784 5.78 72.088 0.348 96.936-10.436 47.736-32.64 89.236-65.712 122.82-38.5 39.092-85 62.704-139.508 70.84-53.092 7.924-111.044-3.34-157.036-30.516-61.076-36.092-101.908-92.86-117.34-163.144-4.252-19.376-5.268-65.296-1.864-84.48 1.496-8.448 2.728-16.32 2.728-17.492 0.012-3.764-44.46-2.832-60.732 1.272-45.272 11.412-78.392 44.288-90.448 89.78-4.332 16.348-4.328 51.54 0.008 68.096 9.384 35.824 32.328 64.86 63.384 80.204 13.656 6.748 35.392 12.808 45.944 12.808 16.632 0 29.14 7 35.684 19.968 4.040 8.016 3.428 15.156-3.1 35.976-11.392 36.328-15.508 64.912-14.064 97.656 2.756 62.504 24.568 109.564 70.232 151.532 39.164 35.996 87.052 57.060 145.952 64.188 13.74 1.664 52.76-0.584 69.564-4.008zM556.372 431.112c52.6-14.312 94.432-48 117.756-94.828 35.3-70.884 21.564-153.688-34.86-210.112-52.868-52.872-129.22-67.808-198.284-38.788-40.532 17.028-77.056 54-95.848 97.012-44.072 100.896 14.696 219.32 122.3 246.448 19.096 4.812 20.832 4.964 49.684 4.332 19.884-0.436 29.632-1.444 39.252-4.064zM572.588 326.88c-9.036-2.060-13.084-5.18-45.268-34.88-17.392-16.044-33.32-30.628-35.4-32.412l-3.78-3.236-14.376 13.8c-15.424 14.808-20.312 17.008-33.752 15.208-8.264-1.108-18.12-8.48-22.304-16.68-3.744-7.348-3.848-20.548-0.212-27.7 3.72-7.312 43.904-48.144 53.452-54.316 8.624-5.576 20.216-6.572 29.588-2.544 8.74 3.756 104.52 93.548 106.816 100.14 8.368 24.008-11.2 47.996-34.764 42.62z" />
<glyph unicode="&#xe916;" glyph-name="global-reach" d="M457.852 902.7c-163.996-19.872-304.54-125.9-368.16-277.748-47.016-112.224-47.016-241.68 0-353.904 46.26-110.416 134.94-199.096 245.356-245.356 111.416-46.68 241.044-46.992 351.924-0.844 112.884 46.984 201.196 135.296 248.18 248.18 46.148 110.88 45.836 240.508-0.844 351.924-57.768 137.88-182.412 241.108-327.132 270.92-45.828 9.444-105.3 12.16-149.324 6.828zM564.908 839.464c24.88-3.22 42.728-7.228 43.488-9.76 14.816-49.52 20.376-68.668 24.616-84.744 6.648-25.204 17.228-73.664 17.228-78.896v-4.036l-20.052 2.076c-45.792 4.744-115.74 6.52-167.256 4.244-26.984-1.192-58.088-3.1-69.12-4.244l-20.052-2.076v4.036c0 11.528 18.408 86.256 32.624 132.432 4.584 14.896 8.336 28.164 8.336 29.48 0 3.372 6.268 5.392 28.928 9.328 38.428 6.672 80.624 7.424 121.26 2.16zM699.592 795.956c59.096-31.576 112.828-82.352 148.964-140.776 8.756-14.152 20.136-35.22 20.136-37.276 0-0.472-2.104-0.060-4.676 0.92-10.484 3.984-80.32 21.012-112.16 27.344-18.732 3.724-34.284 7-34.56 7.276-0.276 0.272-2.852 12.72-5.728 27.66-5.672 29.476-17.232 78.248-25.148 106.096-2.732 9.62-4.568 17.492-4.076 17.492s8.252-3.932 17.248-8.736zM340.548 798.292c-3.404-8.844-20.864-81.008-26.716-110.436-3.724-18.732-6.968-34.252-7.2-34.488-0.236-0.232-15.756-3.476-34.488-7.2-31.84-6.332-101.676-23.36-112.16-27.344-2.572-0.98-4.676-1.288-4.676-0.684s3.868 8.336 8.592 17.18c22.636 42.368 56.468 83.896 93.696 115.016 37.708 31.516 87.764 60.456 82.952 47.956zM579.444 605.012c34.468-2.156 79.836-6.76 81.3-8.248 1.472-1.496 6.088-46.976 8.256-81.32 2.204-34.972 2.204-99.916 0-134.888-2.168-34.344-6.784-79.824-8.256-81.32-1.464-1.488-46.832-6.092-81.3-8.248-34.972-2.188-99.916-2.188-134.888 0-34.392 2.152-79.808 6.756-81.372 8.248-1.496 1.432-5.928 45.472-8.188 81.32-2.2 34.972-2.2 99.916 0 134.888 2.256 35.792 6.692 79.872 8.188 81.372 1.408 1.408 44.936 5.964 76.284 7.984 32.204 2.076 108.36 2.192 139.976 0.212zM295.896 566.188c-4.744-45.792-6.52-115.74-4.244-167.256 1.192-26.984 3.1-58.088 4.244-69.12l2.076-20.052h-4.036c-11.408 0-79.812 16.748-130.096 31.856 49.563-12.704 38.376-9.273 27.179-5.864l-60.723 15.896c-5.656 1.572-12.92 55.736-12.92 96.352 0 40.596 7.252 94.7 12.92 96.396 45.74 13.684 68.392 20.296 82.184 23.988 25.264 6.76 74.324 17.596 80.292 17.736l5.2 0.12-2.076-20.052zM761.716 580.216c40.116-8.756 55.276-12.868 131.988-35.82 5.668-1.696 12.92-55.8 12.92-96.396s-7.252-94.7-12.92-96.396c-49.52-14.816-68.668-20.376-84.744-24.616-25.204-6.648-73.664-17.228-78.896-17.228h-4.036l2.076 20.052c1.144 11.032 3.052 42.136 4.244 69.12 2.276 51.516 0.5 121.464-4.244 167.256l-2.076 20.052h4.036c2.22 0 16.464-2.712 31.652-6.024zM201.388 266.004c20.18-5.168 52.020-12.444 70.756-16.172 18.732-3.724 34.252-6.968 34.488-7.2 0.232-0.236 3.476-15.756 7.2-34.488 5.852-29.428 23.312-101.592 26.716-110.436 2.136-5.552-6.416-3.344-22.328 5.76-55.204 31.596-100.344 73.564-135.548 126.020-19.856 29.588-29.024 50.164-20.964 47.060 1.64-0.632 19.496-5.376 39.68-10.544zM865.28 273.42c0-4.588-13.308-28.352-27.492-49.104-30.156-44.108-72.344-84.256-118.608-112.872-13.5-8.352-35.196-20.136-37.072-20.136-0.36 0 1.58 7.872 4.312 17.492 7.916 27.848 19.476 76.62 25.148 106.096 2.876 14.94 5.452 27.388 5.728 27.66 0.276 0.276 15.828 3.552 34.56 7.28 29.048 5.78 88.804 20.24 105.744 25.588 7.44 2.348 7.68 2.288 7.68-2.004zM462.932 227.652c51.516-2.276 121.464-0.5 167.256 4.244l20.052 2.076v-4.036c0-5.232-10.58-53.692-17.228-78.896-4.24-16.076-9.8-35.224-24.616-84.744-1.696-5.668-55.8-12.92-96.396-12.92s-94.7 7.252-96.396 12.92c-14.816 49.52-20.376 68.668-24.616 84.744-6.648 25.204-17.228 73.664-17.228 78.896v4.036l20.052-2.076c11.032-1.144 42.136-3.052 69.12-4.244z" />
<glyph unicode="&#xe917;" glyph-name="single-device" d="M331.948 946.952c-56.464-3.14-94.124-10.796-125.188-25.452-56.948-26.86-85.628-73.148-97.016-156.556-2.868-21-3.076-42.716-3.076-316.944s0.208-295.944 3.076-316.944c7.784-57.016 22.82-94.288 49.568-122.884 29.564-31.6 69.072-47.964 135.94-56.292 22.536-2.804 41.904-3.080 216.748-3.080s194.212 0.276 216.748 3.080c66.868 8.328 106.376 24.692 135.94 56.292 26.748 28.596 41.784 65.868 49.568 122.884 2.868 21 3.076 42.716 3.076 316.944s-0.208 295.944-3.076 316.944c-7.784 57.016-22.82 94.288-49.568 122.884-29.84 31.9-69.932 48.208-140.208 57.032-14.18 1.78-364.576 3.648-392.532 2.092zM725.332 875.72c44.116-5.82 68.86-15.308 87.204-33.444 18.044-17.836 26.888-39.848 33.512-83.44 2.796-18.392 3.020-41.152 3.020-309.984 0-315.504 0.216-307.592-9.468-344.744-11.124-42.688-33.752-65.212-77.188-76.836-36.68-9.816-46.212-10.204-250.412-10.204-168.18 0-189.272 0.3-210.804 3.004-84.384 10.592-110.88 35.768-123.244 117.092-2.796 18.392-3.020 41.188-3.020 310.836s0.224 292.444 3.020 310.836c10.48 68.956 31.124 96.048 83.7 109.84 38.208 10.028 58.404 10.808 266.56 10.292 151.832-0.376 178.696-0.816 197.12-3.248zM403.060 780.552c-13.332-6.6-20.416-22.28-17.084-37.816 2.272-10.588 12.868-22.176 22.772-24.896 4.584-1.26 38.46-1.876 103.252-1.876s98.668 0.616 103.252 1.876c9.648 2.652 20.516 14.336 22.652 24.356 3.4 15.932-3.724 31.92-17.104 38.396-7.364 3.564-9.032 3.62-108.912 3.62-100.272 0-101.52-0.044-108.828-3.66zM488.108 293.444c-36.524-7.872-70.736-41.404-79.296-77.728-3.32-14.068-3.336-38.976-0.040-51.944 9.2-36.196 38.332-66.036 75.068-76.892 13.928-4.116 42.392-4.116 56.32 0 36.512 10.792 65.988 40.976 75.080 76.892 3.012 11.904 3.364 36.156 0.712 49.052-7.776 37.812-42.752 72.704-80.912 80.716-14.732 3.092-32.308 3.056-46.932-0.096zM522.788 226.012c3.584-0.996 9.656-4.64 13.492-8.1 26.316-23.724 10.828-65.508-24.28-65.508-34.492 0-50.368 40.94-25.168 64.896 9.896 9.412 22.468 12.456 35.956 8.712z" />
<glyph unicode="&#xe918;" glyph-name="phone" d="M822.918 712.194c-36.438 66.44-105.78 113.118-180.958 121.838-9.336 1.16-17.834-5.614-18.91-14.984-1.092-9.37 5.614-17.834 14.984-18.928 64.376-7.458 123.75-47.446 154.948-104.328 3.106-5.666 8.96-8.858 14.984-8.858 2.782 0 5.58 0.666 8.192 2.1 8.262 4.522 11.298 14.916 6.76 23.16zM691.2 885.128v7.254c0 37.274-30.328 67.618-67.618 67.618h-445.048c-37.29 0-67.6-30.344-67.6-67.618v-34.782h153.6c9.42 0 17.066-7.646 17.066-17.066 0-9.438-7.646-17.066-17.066-17.066h-153.6v-819.848c0-37.29 30.31-67.618 67.602-67.618h445.048c37.29 0 67.618 30.328 67.618 67.618v120.116h-153.6c-9.438 0-17.066 7.628-17.066 17.066 0 9.42 7.628 17.066 17.066 17.066h153.6v176.588c126.668 27.614 221.866 140.492 221.866 275.336s-95.2 247.722-221.868 275.336zM452.266 39.8c0-19.61-15.958-35.532-35.55-35.532h-31.316c-19.592 0-35.532 15.924-35.532 35.532v31.334c0 19.592 15.94 35.532 35.532 35.532h31.318c19.592 0 35.55-15.94 35.55-35.532v-31.334zM682.188 367.342l-10.598-1.74c-0.12-0.018-0.222-0.034-0.324-0.052-6.878-1.126-13.38-1.928-19.66-2.526-6.776-0.546-13.568-1.024-20.48-1.024-21.88 0-43.622 3.192-64.682 8.892l17.272 3.84c9.216 2.048 15.018 11.162 12.954 20.36-2.030 9.198-11.144 14.95-20.344 12.97l-66.014-14.678-0.342 0.17-126.84-33.382 38.86 116.53-3.994 6.708c-10.872 18.312-19.234 37.906-25.054 58.248-6.298 22.050-9.608 44.97-9.608 68.13 0 119.552 85.112 219.614 197.922 242.756 16.11 3.31 32.786 5.052 49.868 5.052 6.912 0 13.704-0.478 20.48-1.042 6.28-0.598 12.782-1.4 19.66-2.526 0.102-0.018 0.204-0.018 0.324-0.052l10.598-1.74c112.214-23.604 196.744-123.324 196.744-242.45s-84.528-218.84-196.742-242.444zM416.726 72.526h-31.334c-0.768 0-1.4-0.632-1.4-1.4v-31.334c0-0.768 0.632-1.4 1.4-1.4h31.334c0.768 0 1.4 0.632 1.4 1.4v31.334c-0.002 0.77-0.632 1.4-1.4 1.4z" />
<glyph unicode="&#xe919;" glyph-name="location" d="M489.294 319.388c6.492-5.71 14.598-8.571 22.711-8.571s16.222 2.862 22.711 8.571c8.223 7.244 201.322 179.359 201.322 357.86 0 123.577-100.497 224.115-224.029 224.115-123.536 0-224.036-100.539-224.036-224.115-0.007-178.501 193.099-350.616 201.322-357.86zM512.005 735.805c32.072 0 58.079-26.21 58.079-58.558 0-32.344-26.007-58.558-58.079-58.558-32.082 0-58.085 26.217-58.085 58.558 0 32.347 26.003 58.558 58.085 58.558zM942.487 319.488l-25.952 90.943c-4.213 14.76-17.698 24.935-33.040 24.935h-185.214c-6.696-9.954-13.76-19.946-21.232-29.993-51.914-69.749-104.69-116.929-110.541-122.087-15.067-13.267-34.42-20.573-54.503-20.573-20.070 0-39.422 7.299-54.51 20.58-5.844 5.151-58.627 52.338-110.537 122.081-7.471 10.047-14.536 20.042-21.232 29.993h-185.217c-15.343 0-28.827-10.175-33.040-24.935l-30.93-108.386 691.389-126.639 174.56 144.081zM1022.683 38.428l-66.302 232.369-328.964-276.164h362.228c10.781 0 20.935 5.058 27.427 13.664 6.492 8.609 8.564 19.766 5.61 30.131zM168.23 236.343l-104.952 19.225-61.957-217.14c-2.955-10.364-0.883-21.521 5.613-30.127 6.492-8.606 16.646-13.664 27.427-13.664h133.869v241.706zM216.337 227.527v-232.89h336.256l167.509 140.619z" />
<glyph unicode="&#xe91a;" d="M789.333 490.667c-105.941 0.242-191.758 86.059-192 191.977v0.023c0.234 23.051 4.596 45.015 12.379 65.282l-0.433-1.282h-438.613c-47.128 0-85.333-38.205-85.333-85.333v0-512c0-47.128 38.205-85.333 85.333-85.333v0h682.667c47.128 0 85.333 38.205 85.333 85.333v0 414.293c-35.057-44.47-88.87-72.802-149.307-72.96h-0.026z" />
<glyph unicode="&#xe91b;" d="M710.827 507.733l-145.92-114.773c-14.356-11.594-32.796-18.653-52.88-18.773h-0.027c-20.262 0.016-38.869 7.092-53.496 18.9l0.163-0.127-369.92 291.84c10.531 35.972 43.2 61.809 81.913 61.867h438.62c-7.35-18.985-11.712-40.949-11.946-63.901l-0.001-0.099c0.346-77.424 46.263-144.040 112.295-174.439l1.198-0.495zM789.333 832c-82.475 0-149.333-66.859-149.333-149.333s66.859-149.333 149.333-149.333c82.475 0 149.333 66.859 149.333 149.333v0c0 82.475-66.859 149.333-149.333 149.333v0z" />
<glyph unicode="&#xe91c;" glyph-name="share-svgrepo-com-1" d="M787.692 14.769c-65.26 0-118.154 52.894-118.154 118.154s52.894 118.154 118.154 118.154c65.26 0 118.154-52.894 118.154-118.154s-52.894-118.154-118.154-118.154v0zM236.308 329.846c-65.26 0-118.154 52.894-118.154 118.154 0 65.221 52.894 118.154 118.154 118.154s118.154-52.933 118.154-118.154c0-65.26-52.894-118.154-118.154-118.154v0zM787.692 881.231c65.26 0 118.154-52.894 118.154-118.154s-52.894-118.154-118.154-118.154c-65.26 0-118.154 52.894-118.154 118.154s52.894 118.154 118.154 118.154v0zM787.692 329.846c-69.711 0-130.56-36.431-165.573-91.057l-210.905 120.517c13.627 26.782 22.016 56.635 22.016 88.694 0 19.81-3.82 38.558-9.255 56.596l219.412 125.361c35.958-38.991 87.079-63.803 144.305-63.803 108.78 0 196.923 88.143 196.923 196.923s-88.143 196.923-196.923 196.923c-108.78 0-196.923-88.143-196.923-196.923 0-19.81 3.82-38.558 9.255-56.635l-219.412-125.322c-35.958 38.951-87.079 63.803-144.305 63.803-108.78 0-196.923-88.143-196.923-196.923s88.143-196.923 196.923-196.923c44.898 0 85.819 15.596 118.942 40.881l-0.788-1.497 238.474-136.271c-0.788-7.089-2.166-13.942-2.166-21.268 0-108.78 88.143-196.923 196.923-196.923s196.923 88.143 196.923 196.923c0 108.78-88.143 196.923-196.923 196.923v0z" />
<glyph unicode="&#xe91d;" glyph-name="laptop-send-svgrepo-com" d="M981.333 213.333v682.667h-938.667v-682.667h-42.667v-115.5l97.833-97.833h828.333l97.833 97.833v115.5h-42.667zM85.333 853.333h853.333v-640h-853.333v640zM981.333 115.5l-72.833-72.833h-793l-72.833 72.833v55.167h938.667v-55.167zM576 128h42.667v-42.667h-42.667v42.667zM405.333 128h42.667v-42.667h-42.667v42.667zM490.667 128h42.667v-42.667h-42.667v42.667zM828.542 802.958c-5.958 7.208-15.917 9.625-24.521 6.104l-600.25-246.167c-7.521-3.083-12.646-10.208-13.188-18.333-0.521-8.125 3.625-15.854 10.688-19.917l101.75-58.258v-176.2c0-9 5.667-17.042 14.146-20.083 2.354-0.833 4.771-1.25 7.188-1.25 6.25 0 12.354 2.75 16.479 7.792l93.944 114.298 87.787-50.277c3.333-1.896 6.979-2.813 10.583-2.813 7 0 13.854 3.458 17.917 9.729l278.958 430.146c5.081 7.833 4.477 18.042-1.481 25.229zM345.688 349.75v113.708l145.396 63.187-145.396-176.896zM526.25 387.729l-63.987 36.658 117.987 143.55c6.271 7.604 6.479 18.521 0.542 26.396-5.938 7.896-16.521 10.687-25.521 6.708l-228.292-99.188-66.625 38.146 496.75 203.708-230.854-355.979z" />
<glyph unicode="&#xe91e;" glyph-name="laptop-svgrepo-com" d="M1020.732 71.080l-62.094 82.792v441.192c0 45.052-36.65 81.702-81.702 81.702h-135.908c3.394 15.92 5.186 32.328 5.186 49.022-0.002 129.144-105.068 234.212-234.214 234.212s-234.212-105.068-234.212-234.212c0-16.694 1.79-33.102 5.186-49.022h-135.91c-45.052 0-81.702-36.65-81.702-81.702v-381.276c0-9.026 7.316-16.34 16.34-16.34s16.34 7.314 16.34 16.34v381.276c0 27.030 21.99 49.022 49.022 49.022h145.404c18.79-50.55 54.768-93.812 103.018-121.504l13.626-53.446c-6.822-1.964-11.818-8.238-11.818-15.692 0-9.026 7.316-16.34 16.34-16.34h3.642l5.454-21.388c6.286-24.656 31.14-43.974 56.588-43.974h65.362c25.448 0 50.302 19.314 56.588 43.974l5.454 21.388h3.642c9.024 0 16.34 7.314 16.34 16.34 0 7.454-4.996 13.728-11.818 15.692l13.626 53.446c48.25 27.69 84.23 70.952 103.018 121.504h145.404c27.032 0 49.022-21.992 49.022-49.022v-430.298h-844.254c-5.144 0-9.986-2.42-13.072-6.536l-65.362-87.15c-2.122-2.828-3.268-6.268-3.268-9.804v-43.574c0-45.052 36.65-81.702 81.702-81.702h860.596c45.052 0 81.702 36.65 81.702 81.702v43.574c0 3.536-1.146 6.976-3.268 9.804zM569.602 423.788c-2.584-10.134-14.462-19.364-24.92-19.364h-65.362c-10.458 0-22.336 9.23-24.92 19.364l-3.394 13.316h121.994l-3.398-13.316zM606.728 547.874c-4.050-2.164-7.006-5.93-8.14-10.382l-17.262-67.708h-138.654l-17.262 67.708c-1.136 4.452-4.090 8.216-8.14 10.382-65.878 35.156-106.804 103.328-106.804 177.912 0.002 111.126 90.408 201.534 201.534 201.534s201.532-90.406 201.532-201.532c0-74.584-40.926-142.758-106.804-177.914zM89.872 132.086h844.256l40.852-54.468h-925.958l40.85 54.468zM991.32 17.702c0-27.030-21.99-49.022-49.022-49.022h-860.596c-27.032 0-49.022 21.992-49.022 49.022v27.234h462.98v-27.234c0-9.026 7.316-16.34 16.34-16.34s16.34 7.314 16.34 16.34v27.234h462.98v-27.234zM593.702 322.724c0-9.024-7.316-16.34-16.34-16.34s-16.34 7.316-16.34 16.34c0 9.024 7.316 16.34 16.34 16.34s16.34-7.316 16.34-16.34zM462.978 322.724c0-9.024-7.316-16.34-16.34-16.34s-16.34 7.316-16.34 16.34c0 9.024 7.316 16.34 16.34 16.34s16.34-7.316 16.34-16.34zM528.34 322.724c0-9.024-7.316-16.34-16.34-16.34s-16.34 7.316-16.34 16.34c0 9.024 7.316 16.34 16.34 16.34s16.34-7.316 16.34-16.34zM597.244 706.75c-6.088 4.014-14.092 3.506-19.624-1.238l-27.498-23.566-27.498 23.566c-6.12 5.246-15.148 5.246-21.268 0l-27.492-23.562-27.488 23.562c-5.534 4.74-13.536 5.25-19.624 1.238-6.086-4.008-8.78-11.562-6.608-18.52l54.468-174.298c2.132-6.822 8.45-11.466 15.598-11.466h43.574c7.146 0 13.464 4.646 15.598 11.466l54.468 174.298c2.176 6.954-0.52 14.51-6.606 18.52zM521.774 535.146h-19.548l-34.404 110.094c5.508-2.196 11.962-1.27 16.68 2.776l27.494 23.566 27.496-23.566c4.722-4.046 11.174-4.972 16.69-2.772l-34.408-110.098z" />
<glyph unicode="&#xe91f;" glyph-name="laptop-mail-svgrepo-com" d="M1007.966 192.534c8.856 0 16.034 7.178 16.034 16.034v239.432c0 8.696-7.338 16.034-16.034 16.034h-69.478v189.194c0 27.702-22.536 50.238-50.238 50.238h-480.848c-9.738 86.222-97.164 153.92-203.244 153.92-112.574 0-204.158-76.242-204.158-169.954 0-56.908 33.774-107.366 85.512-138.228v-261.538c0-8.854 7.176-16.034 16.034-16.034 8.856 0 16.034 7.178 16.034 16.034v245.876c26.302-10.296 55.644-16.064 86.58-16.064 9.342 0 18.742 0.534 28.018 1.594l99.842-67.268c6.18-4.164 14.642-3.438 20.032 1.704 4.568 4.362 6.156 11.18 3.982 17.11l-29.564 80.65c22.756 14.14 41.37 31.802 55.072 51.776 0.372-0.026 0.744-0.058 1.124-0.058h523.758v-138.956h-240.504c-8.728 0-16.034-7.322-16.034-16.034v-239.432c0-8.854 7.176-16.034 16.034-16.034h240.502v-36.342h-788.844v48.1c0 8.854-7.176 16.034-16.034 16.034-8.856 0-16.034-7.178-16.034-16.034v-48.098h-69.476c-8.856 0-16.034-7.178-16.034-16.034v-17.102c0-46.562 37.882-84.442 84.442-84.442h670.196c8.856 0 16.034 7.178 16.034 16.034 0 8.854-7.176 16.034-16.034 16.034h-670.196c-28.882 0-52.376 23.496-52.376 52.376v1.068h959.866v-1.068c0-28.88-23.494-52.376-52.376-52.376h-103.682c-8.856 0-16.034-7.178-16.034-16.034 0-8.854 7.176-16.034 16.034-16.034h103.682c46.562 0 84.442 37.882 84.442 84.442v17.102c0 8.854-7.176 16.034-16.034 16.034h-69.478v36.342h69.48zM299.226 572.562c-7.056-3.764-10.26-12.156-7.508-19.664l17.17-46.846-63.794 42.98c-6.036 4.064-12.684 2.266-19.394 1.592-7.156-0.718-14.348-1.082-21.542-1.082-94.892 0-172.092 61.856-172.092 137.888s77.2 137.888 172.092 137.888 172.092-61.856 172.092-137.888c0-46.196-28.796-89.138-77.024-114.868zM398.472 635.056c4.52 11.694 7.54 23.866 8.938 36.342h480.84c10.020 0 18.172-8.152 18.172-18.172v-18.172h-507.95zM969.26 431.966l-132.316-132.316-132.316 132.316h264.632zM681.954 224.602v184.69l143.65-143.65c6.178-6.176 16.498-6.176 22.676 0l143.652 143.65v-184.69h-309.978zM512 327.214c-27.702 0-50.238-22.536-50.238-50.238s22.536-50.238 50.238-50.238 50.238 22.536 50.238 50.238c0 27.702-22.536 50.238-50.238 50.238zM512 258.806c-10.020 0-18.172 8.152-18.172 18.172s8.152 18.172 18.172 18.172 18.172-8.152 18.172-18.172c0-10.020-8.152-18.172-18.172-18.172zM571.34 379.738c-17.964 10.392-38.482 15.886-59.34 15.886-20.854 0-41.372-5.492-59.334-15.882-7.666-4.434-10.288-14.242-5.852-21.908 4.432-7.664 14.248-10.286 21.906-5.852 13.090 7.572 28.056 11.574 43.28 11.574 15.226 0 30.192-4.004 43.282-11.576 2.53-1.464 5.288-2.16 8.014-2.16 5.534 0.002 10.922 2.874 13.894 8.008 4.434 7.666 1.814 17.474-5.85 21.91zM605.532 439.002c-28.31 16.376-60.654 25.032-93.532 25.032-32.882 0-65.228-8.656-93.542-25.034-7.664-4.434-10.284-14.242-5.848-21.908 2.974-5.138 8.356-8.008 13.894-8.008 2.724 0 5.486 0.696 8.014 2.156 23.438 13.558 50.232 20.726 77.482 20.726 27.248 0 54.040-7.166 77.478-20.722 7.666-4.436 17.474-1.814 21.906 5.852 4.434 7.664 1.814 17.472-5.852 21.906zM643.656 495.946c-39.63 23.876-85.156 36.496-131.656 36.496-44.908 0-89.082-11.822-127.746-34.188-7.666-4.434-10.286-14.242-5.852-21.908s14.244-10.284 21.906-5.852c33.792 19.548 72.414 29.88 111.69 29.88 40.668 0 80.472-11.028 115.11-31.896 2.588-1.56 5.44-2.302 8.258-2.302 5.436 0 10.738 2.764 13.748 7.762 4.572 7.586 2.126 17.44-5.458 22.008zM212.71 703.466h-17.102c-8.856 0-16.034-7.178-16.034-16.034s7.176-16.034 16.034-16.034h17.102c8.856 0 16.034 7.178 16.034 16.034s-7.178 16.034-16.034 16.034zM144.3 703.466h-17.102c-8.856 0-16.034-7.178-16.034-16.034s7.176-16.034 16.034-16.034h17.102c8.856 0 16.034 7.178 16.034 16.034s-7.176 16.034-16.034 16.034zM281.12 703.466h-17.102c-8.856 0-16.034-7.178-16.034-16.034s7.176-16.034 16.034-16.034h17.102c8.856 0 16.034 7.178 16.034 16.034s-7.178 16.034-16.034 16.034z" />
<glyph unicode="&#xe921;" glyph-name="data-share-svgrepo-com" d="M160 160v293.501l-114.749-114.752-45.251 45.251 192 192 192-192-45.251-45.251-114.749 114.752v-293.501h384v-64h-384c-35.329 0.044-63.956 28.671-64 63.996v0.004zM768 256h128c35.332-0.036 63.964-28.668 64-63.997v-128.003c-0.036-35.332-28.668-63.964-63.997-64h-128.003c-35.332 0.036-63.964 28.668-64 63.997v128.003c0.036 35.332 28.668 63.964 63.997 64h0.003zM896 64v128h-128.048l0.048-128zM864 768v-293.501l114.749 114.752 45.251-45.251-192-192-192 192 45.251 45.251 114.749-114.752v293.501h-384v64h384c35.329-0.044 63.956-28.671 64-63.996v-0.004zM64 768h192v-64h-192v64zM64 896h256v-64h-256v64z" />
<glyph unicode="&#xe922;" glyph-name="security-2-svgrepo-com" d="M512 800.781l320-71.111v-313.67c0-123.183-83.546-266.547-308.885-350.007l-11.115-4.117-11.115 4.117c-225.339 83.46-308.885 226.825-308.885 350.007v313.67l320 71.111zM256 678.331v-262.331c0-88.512 58.278-208.986 256-285.777 197.722 76.791 256 197.265 256 285.777v262.331l-256 56.889-256-56.889z" />
<glyph unicode="&#xe923;" glyph-name="idea-coding-svgrepo-com" d="M490.667 960h42.667v-85.333h-42.667v85.333zM258.849 886.464l36.949 21.333 42.667-73.899-36.949-21.333-42.667 73.899zM94.868 706.854l21.329 36.954 73.907-42.658-21.329-36.954-73.907 42.658zM42.667 512h85.333v-42.667h-85.333v42.667zM94.855 274.448l73.907 42.658 21.329-36.954-73.907-42.658-21.329 36.954zM833.875 280.114l21.329 36.954 73.907-42.658-21.329-36.954-73.907 42.658zM896 512h85.333v-42.667h-85.333v42.667zM833.895 701.117l73.907 42.658 21.329-36.954-73.907-42.658-21.329 36.954zM685.505 833.888l42.667 73.899 36.949-21.333-42.667-73.899-36.949 21.333zM832 512c0 90.917-38.875 177.833-106.667 238.5-68.729 61.521-157.521 89.667-249.917 79.458-145.875-16.208-264.125-133.771-281.167-279.542-8.75-74.813 7.792-147.438 47.792-210.042 36.517-57.15 62.971-121.75 79.471-191.042h-65.512v-42.667h74.273c2.429-14.069 4.496-28.273 6.102-42.667h-59.042v-42.667h62.667c0.738-13.737 1.333-27.523 1.333-41.479v-43.854h341.333v52.896c0 10.815 0.619 21.627 1.179 32.438h62.821v42.667h-59.121c1.706 14.235 3.923 28.456 6.598 42.667h73.856v42.667h-64.352c17.335 67.504 45.175 134.565 84.165 200.563 28.896 48.958 44.188 105 44.188 162.104zM640-11.104v-10.229h-256v1.188c0 13.954-0.64 27.727-1.342 41.479h258.515c-0.523-10.81-1.173-21.621-1.173-32.438zM644.644 64h-265.429c-1.515 14.373-3.425 28.585-5.715 42.667h277.294c-2.504-14.206-4.55-28.429-6.15-42.667zM659.638 149.333h-294.281c-17.352 77.683-46.515 150.094-87.356 214-34.646 54.229-48.958 117.208-41.375 182.125 14.771 126.25 117.167 228.063 243.5 242.083 80.354 8.917 157.208-15.521 216.75-68.833 58.771-52.583 92.458-127.917 92.458-206.708 0-49.479-13.229-98.021-38.271-140.396-43.087-72.956-73.381-147.3-91.425-222.271zM629.479 606.021l-30.167-30.167 74.521-74.521-74.521-74.521 30.167-30.167 104.688 104.688zM424.688 575.854l-30.167 30.167-104.688-104.688 104.688-104.688 30.167 30.167-74.521 74.521zM439.515 366.102l103.705 285.029 40.074-14.581-103.705-285.029-40.074 14.581z" />
<glyph unicode="&#xe924;" glyph-name="swagger-svgrepo-com" d="M512 960c-282.336 0-512-229.664-512-512s229.664-512 512-512c282.336 0 512 229.664 512 512s-229.664 512-512 512zM512 911.136c255.84 0 463.136-207.328 463.136-463.136s-207.328-463.136-463.136-463.136c-255.84 0-463.136 207.328-463.136 463.136s207.328 463.136 463.136 463.136zM357.152 709.664c-6.016 0.16-12 0-18.176-0.16-41.824-2.528-66.976-22.176-73.984-62.848-4.832-28.512-4-57.472-6.016-86.144-0.64-14.848-2.144-29.696-4.992-44.16-5.664-26.016-16.8-34.176-43.296-35.488-3.552-0.352-7.040-1.024-10.368-1.824v-62.336c48-2.336 54.528-19.36 58.336-69.504 1.536-18.336-0.48-36.704 0.672-55.008 0.864-17.376 3.168-34.528 6.656-51.2 11.008-45.824 55.84-61.152 109.856-51.968v54.816c-8.704 0-16.352-0.16-23.68 0-18.528 0.512-25.344 5.152-27.008 22.816-2.528 22.816-1.824 45.984-3.168 68.992-2.848 42.848-7.52 84.832-49.312 112 21.504 15.84 37.152 34.688 41.984 59.68 3.488 17.504 5.664 35.168 7.008 52.832s-0.8 35.84 0.672 53.344c2.464 28.32 4.32 39.968 38.304 38.816 5.152 0 10.144 0.672 15.84 1.152v55.84c-6.816 0-13.152 0.16-19.328 0.352zM681.184 709.152c-11.68 0.352-23.328-0.512-34.848-2.528v-54.304c10.528 0 18.688 0 26.656-0.16 14.048-0.16 24.704-5.664 26.016-21.152 1.312-14.176 1.312-28.512 2.656-42.848 2.848-28.672 4.352-57.472 9.344-85.664 4.352-23.168 20.352-40.48 40.16-54.816-34.816-23.328-45.152-56.832-46.816-94.496-1.024-25.632-1.664-51.68-2.976-77.664-1.184-23.68-9.504-31.328-33.376-31.84-6.656-0.352-13.152-0.864-20.48-1.312v-55.68c13.824 0 26.656-0.864 39.52 0 39.648 2.336 63.84 21.664 71.648 60.32 3.328 21.152 5.344 42.656 5.856 64.16 1.312 19.68 1.152 39.52 3.168 59.008 2.976 30.496 17.024 43.168 47.488 45.152 2.848 0.352 5.664 1.024 8.544 1.824v62.496c-5.152 0.672-8.672 1.184-12.512 1.312-22.816 1.024-34.176 8.704-40.032 30.336-3.488 13.856-5.664 28.032-6.304 42.368-1.664 26.336-1.504 52.992-3.168 79.328-3.488 50.816-34.016 74.848-80.512 76.16zM387.168 484c-45.824 0-49.152-67.488-3.68-71.84h2.528c19.488-1.152 36.192 13.664 37.344 33.184v1.952c0.352 19.84-15.488 36.352-35.328 36.704zM511.328 484c-18.976 0.64-34.976-14.336-35.68-33.376 0-1.152 0-2.144 0.16-3.328 0-21.504 14.688-35.168 36.704-35.168 21.664 0 35.328 14.176 35.328 36.352-0.16 21.504-14.688 35.68-36.512 35.488zM637.664 484c-19.968 0.352-36.64-15.52-37.344-35.68 0-20 16.16-36.192 36.352-36.192h0.352c18.144-3.168 36.32 14.336 37.504 35.328 0.992 19.488-16.672 36.512-36.864 36.512z" />
<glyph unicode="&#xe925;" glyph-name="developer-centerpublic-api-svgrepo-com" d="M877.686 232.087l-0.585 0.366c-8.679 6.010-14.292 15.915-14.292 27.131 0 7.248 2.344 13.949 6.315 19.385l-0.065-0.093c34.502 58.943 54.875 129.788 54.875 205.392 0 227.44-184.377 411.817-411.817 411.817s-411.817-184.377-411.817-411.817c0-227.44 184.377-411.817 411.817-411.817 79.578 0 153.885 22.572 216.867 61.662l-1.755-1.015c14.622 8.992 33.63 5.118 43.645-8.773l0.146-0.073c3.591-4.931 5.745-11.108 5.745-17.789 0-10.581-5.404-19.9-13.602-25.348l-0.112-0.070-6.141-4.021c-69.869-42.67-154.408-67.934-244.847-67.934-262.446 0-475.201 212.755-475.201 475.201s212.755 475.201 475.201 475.201c262.446 0 475.201-212.755 475.201-475.201 0-89.62-24.809-173.446-67.934-244.984l1.195 2.137c-5.317-8.853-14.869-14.686-25.782-14.686-6.381 0-12.296 1.994-17.156 5.392l0.097-0.064zM340.343 630.671c7.165 7.091 24.71 9.65 33.264 0 10.601-11.186 7.165-29.462 0-37.139l-110.612-107.469 107.907-102.205c7.165-7.091 8.115-27.342 0-35.384-9.796-9.723-29.828-8.188-36.481-1.535l-126.111 125.672c-3.304 3.329-5.346 7.914-5.346 12.977s2.042 9.648 5.347 12.978l132.032 132.032zM683.657 630.671l132.033-132.033c3.304-3.329 5.346-7.914 5.346-12.977s-2.042-9.648-5.347-12.978l0.001 0.001-126.038-125.819c-6.653-6.58-25.588-10.747-36.554 0-10.308 10.235-7.091 31.29 0 38.382l108.346 100.67-111.855 108.638c-7.165 7.676-9.504 26.611 0 36.042 9.285 9.138 26.904 7.091 34.068 0zM548.115 656.99c3.582 9.504 21.347 15.499 32.679 11.259 10.82-4.021 17.18-19.008 14.256-28.512l-119.897-329.716c-3.509-9.504-20.616-13.306-30.194-9.723-10.162 3.509-21.201 17.546-17.546 26.977l120.628 329.716z" />
<glyph unicode="&#xe926;" glyph-name="speedometer-svgrepo-com-1" d="M512 749.739c-282.98 0-512-228.993-512-512 0-12.297 9.967-22.261 22.261-22.261 9.875 0 393.529 0 401.012 0 9.97-39.717 45.962-69.217 88.727-69.217s78.757 29.5 88.727 69.217c7.423 0 390.852 0 401.012 0 12.294 0 22.261 9.964 22.261 22.261 0 282.978-228.993 512-512 512zM534.258 704.7v0c109.124-5.081 211.436-47.461 292.191-121.029-39.557-39.557-39.001-39.001-78.246-78.243-59.452 52.631-134.261 83.711-213.944 88.614v110.659zM489.736 704.7v-110.659h0.003c-78.427-4.832-153.323-35.012-213.944-88.614-39.188 39.186-38.657 38.657-78.246 78.243 80.754 73.569 183.067 115.948 292.188 121.029zM45.039 260c5.081 109.124 47.458 211.436 121.026 292.188l78.246-78.243c-51.1-57.757-83.592-131.928-88.617-213.944h-110.656zM512 190.783c-25.891 0-46.956 21.065-46.956 46.956 0 25.894 21.065 46.956 46.956 46.956 25.514 0 46.956-21.124 46.956-46.956 0-25.894-21.065-46.956-46.956-46.956zM584.779 293.086c-5.245 6.886-10.777 12.279-17.435 17.429l57.137 39.705-39.702-57.134zM616.004 260l115.612 166.371c14.105 20.293-10.721 45.074-30.982 30.985l-184.527-128.23c-44.297 1.956-82.467-27.892-92.85-69.125h-222.932c11.493 163.337 147.217 290.196 311.674 290.196 165.056 0.003 300.24-127.72 311.674-290.196h-207.67zM868.303 260c-4.853 79.493-35.826 154.234-88.617 213.944l78.246 78.243c73.569-80.751 115.948-183.064 121.026-292.188h-110.656z" />
</font>
</defs>
</svg>
